<?xml version="1.0" standalone="no"?>
<!DOCTYPE svg PUBLIC "-//W3C//DTD SVG 1.1//EN" "http://www.w3.org/Graphics/SVG/1.1/DTD/svg11.dtd" >
<svg xmlns="http://www.w3.org/2000/svg">
<metadata></metadata>
<defs>
<font id="horseshoesregular" horiz-adv-x="1024" >
<font-face units-per-em="2048" ascent="1638" descent="-410" />
<missing-glyph horiz-adv-x="1116" />
<glyph horiz-adv-x="2048" />
<glyph horiz-adv-x="2048" />
<glyph unicode="&#xd;" horiz-adv-x="0" />
<glyph unicode=" "  horiz-adv-x="1116" />
<glyph unicode="&#x09;" horiz-adv-x="1116" />
<glyph unicode="&#xa0;" horiz-adv-x="1116" />
<glyph unicode="!" horiz-adv-x="538" d="M143 -86q0 57 41 98t101 41q59 0 99 -40t40 -99q0 -66 -43 -103.5t-96 -37.5q-59 0 -100.5 44t-41.5 97zM182 1462q0 154 146 154q45 0 73.5 -18.5t45 -45t21.5 -53t5 -45.5q0 -98 -11 -190.5t-24 -151.5q-49 -225 -81.5 -456.5t-32.5 -475.5l-93 -41q8 96 10.5 170 t2.5 158q0 92 -2 172t-5.5 155.5t-9.5 150.5t-12 155z" />
<glyph unicode="&#x22;" horiz-adv-x="419" d="M59 1550l115 31l6 -315l-104 -29zM252 1575l121 -10l-13 -332l-88 27z" />
<glyph unicode="#" horiz-adv-x="1337" d="M137 410l4 116h189l67 348h-258l13 121h274l86 432h121l-86 -430l297 -2l110 504h127l-108 -504h272l-12 -121h-287l-69 -348h243l-10 -116h-262l-86 -410h-125l90 410l-307 2l-96 -465l-121 -2l100 465h-166zM449 528l303 -2l69 348l-303 3z" />
<glyph unicode="$" horiz-adv-x="800" d="M43 244q0 59 33 104t94 45q55 0 86 -34.5t31 -88.5q0 -53 -29 -84.5t-98 -31.5q10 -16 27.5 -35t40 -34t49 -26.5t57.5 -13.5l26 594q-72 61 -123 125.5t-94 130.5q-70 109 -69 248q0 63 15 124.5t51 114t96.5 92t150.5 60.5l2 119l88 -4l-4 -111q51 -4 101.5 -24.5 t88 -53.5t61.5 -75t24 -91t-30 -88t-87 -39q-51 0 -83 34t-32 79q0 43 24.5 74.5t84.5 44.5q-25 31 -61 45t-91 12l-16 -639q74 -47 132 -86t91 -88q45 -68 60.5 -131t15.5 -121q0 -156 -79 -262t-259 -145l-12 -240l-87 8l11 230q-113 8 -195 75q-49 41 -70.5 88.5 t-21.5 98.5zM205 1235q0 -35 4 -68.5t20 -70.5q12 -25 28.5 -56.5t35 -61.5t38 -54.5t40.5 -36.5l14 565q-57 -6 -93 -29.5t-55.5 -56.5t-25.5 -67.5t-6 -63.5zM424 53q190 66 190 244q0 45 -14 85t-37.5 75t-53.5 67.5t-63 65.5z" />
<glyph unicode="%" horiz-adv-x="1529" d="M84 1108q0 70 13.5 147.5t45 143t86 109.5t136.5 44q53 0 97 -29.5t74.5 -81.5t48 -124t17.5 -156q0 -217 -75.5 -332.5t-204.5 -111.5q-53 0 -97.5 32.5t-75 86t-48 124t-17.5 148.5zM225 -147l965 1724l90 -27l-967 -1722zM233 1065q0 -43 4.5 -88t8.5 -82 q6 -43 22.5 -82t55.5 -43q25 0 38 16.5t27 38.5q23 37 38 115t15 170v158t-18 141q-8 27 -19.5 48.5t-48.5 21.5t-60.5 -39t-37.5 -99.5t-19.5 -133t-5.5 -142.5zM928 315q0 68 17.5 136.5t48 124t73.5 91t96 35.5q66 0 117 -36.5t86 -97t52.5 -140.5t17.5 -166 q0 -92 -19.5 -161.5t-52.5 -116.5t-75 -71t-85 -24q-80 0 -132 40t-85 101.5t-46 137.5t-13 147zM1081 264q0 -27 5.5 -64.5t13.5 -75.5t19 -73t24 -53q10 -16 23.5 -31.5t37.5 -15.5q18 0 35.5 18.5t30.5 44.5q16 37 22 93.5t6 128.5q0 35 -3 82t-10 95t-18.5 90t-25.5 66 q-14 25 -30.5 40.5t-39.5 15.5q-27 0 -37 -26t-22 -46q-12 -23 -18.5 -58.5t-9.5 -76.5t-3 -81v-73z" />
<glyph unicode="&#x26;" horiz-adv-x="1126" d="M45 389q0 96 15.5 172t56.5 148q37 63 84 118.5t125 110.5q-33 94 -52.5 173t-19.5 159q0 78 19.5 136t60.5 105q45 53 97 79t130 26q66 0 116 -21.5t84 -57.5t50 -81t16 -92q0 -57 -22.5 -108.5t-62.5 -99.5t-93 -91t-117 -84q37 -102 72 -204.5t76 -201.5 q23 -55 49.5 -112t58.5 -111q18 59 30.5 128t23.5 128q10 59 14 124t6 99q0 29 -35.5 47.5t-89.5 16.5v68l363 -62v-67q-33 0 -51.5 8t-42.5 8q-14 0 -25.5 -19.5t-19.5 -48.5q-10 -35 -21.5 -75.5t-17.5 -75.5q-16 -96 -36 -196.5t-46 -201.5q29 -51 62.5 -82.5t68.5 -31.5 q47 0 61.5 31.5t14.5 66.5q0 47 -13.5 73.5t-32.5 49.5h66q43 -45 43 -123q0 -25 -6 -56.5t-18.5 -64.5t-33 -61.5t-48.5 -44.5q-18 -8 -40 -10.5t-42 -2.5q-18 0 -55.5 13.5t-67.5 27.5q-18 10 -28.5 30t-22.5 34q-33 -47 -83.5 -95t-103.5 -71q-27 -10 -59.5 -15t-65.5 -5 q-43 0 -84 15t-76.5 39.5t-66.5 54.5t-55 58q-55 68 -82 145t-27 181zM268 645q0 -55 3 -103t16 -114q6 -31 21.5 -88t29.5 -107q6 -25 21.5 -56.5t29.5 -51.5q27 -41 69 -75t95 -34q16 2 44 18.5t38 31.5q6 8 23.5 34.5t31.5 51.5q-104 174 -183 346t-140 348 q-18 -16 -30.5 -29.5t-27.5 -44.5q-16 -35 -28.5 -66.5t-12.5 -60.5zM459 1372q2 -76 12 -143.5t35 -159.5q41 33 81 65.5t68 67.5q35 43 54.5 84t21.5 88q0 27 -14.5 55.5t-34.5 63.5q-20 29 -48 37t-69 8q-63 0 -84.5 -47t-21.5 -119z" />
<glyph unicode="'" horiz-adv-x="299" d="M82 1575l127 -10l-12 -312l-95 27z" />
<glyph unicode="(" horiz-adv-x="718" d="M104 625q2 160 27 305t84 274q51 111 129 222.5t193 209.5q18 -16 35.5 -30.5t35.5 -30.5q-168 -178 -231 -356q-55 -158 -75.5 -299.5t-20.5 -288.5q0 -139 23.5 -256t60.5 -205q41 -98 99 -198.5t150 -192.5l-49 -62q-121 96 -199.5 210t-144.5 237q-59 109 -88 226.5 t-29 234.5z" />
<glyph unicode=")" horiz-adv-x="694" d="M86 -221q49 51 86 98t66.5 94t53 95.5t44.5 103.5q45 121 64.5 230.5t19.5 230.5q0 152 -21.5 300t-74.5 288q-20 57 -45 103t-52.5 88t-61.5 82t-73 83l72 61q104 -90 185 -205.5t136 -226.5q31 -61 52.5 -135t34 -149.5t18.5 -151.5t6 -143q0 -119 -26.5 -228.5 t-90.5 -232.5q-70 -133 -151.5 -246t-192.5 -201z" />
<glyph unicode="*" horiz-adv-x="595" d="M49 1243l4 66l140 6l-107 123l49 32l125 -116l82 157l55 -14l-67 -166l231 6v-61l-229 -12l151 -154l-65 -35l-133 146l-84 -170l-60 34l76 166z" />
<glyph unicode="+" horiz-adv-x="1011" d="M86 670l363 6l-7 399l133 12l-4 -409l344 2l-6 -119l-336 -2l-2 -350l-120 -4v348l-363 -2z" />
<glyph unicode="," horiz-adv-x="401" d="M86 -184q23 57 37 110.5t14 108.5q0 45 -4 90t-10 90l186 -31q-2 -33 -5 -71.5t-6 -75.5t-6 -66.5t-5 -42.5q-4 -31 -29 -91t-72 -126z" />
<glyph unicode="-" d="M111 719v143l802 -8v-143z" />
<glyph unicode="." horiz-adv-x="378" d="M57 66q0 27 10.5 52t29 44.5t42 32t49.5 12.5q57 0 99.5 -36.5t42.5 -104.5q0 -47 -40 -88t-102 -41q-23 0 -46 11t-41.5 28.5t-31 41t-12.5 48.5z" />
<glyph unicode="/" horiz-adv-x="671" d="M35 -188l471 1804l133 -41l-475 -1804z" />
<glyph unicode="0" horiz-adv-x="913" d="M51 780q0 90 11.5 168t37.5 160q25 72 52.5 144.5t68.5 131t98.5 94t137.5 35.5q57 0 109 -23.5t104 -78.5q57 -78 87.5 -152.5t55.5 -152.5q27 -78 38 -160t11 -166q0 -53 -1 -114.5t-4 -122t-9 -112.5t-17 -87q-18 -61 -50.5 -122.5t-77 -111t-99.5 -81t-123 -31.5 q-66 0 -121 28.5t-99 78t-77.5 113t-56.5 132.5q-35 100 -55.5 213t-20.5 217zM336 752q0 -137 12 -268.5t45 -264.5q16 -59 43 -95t70 -36q53 0 75.5 39t39.5 92q10 35 12 78t2 65q-2 154 -3 251.5t-1 138.5q0 76 -1 159.5t-12 161.5q-4 37 -12 82t-23.5 83t-40 63.5 t-61.5 25.5q-33 0 -56.5 -22.5t-38.5 -59.5t-25.5 -82t-14.5 -90q-10 -82 -10 -163v-158z" />
<glyph unicode="1" horiz-adv-x="636" d="M51 70v57l115 -2q10 0 20.5 2t14.5 6q8 8 12 24.5t6 34t3 32t1 20.5l27 909q0 23 -5 40t-22 34q-14 10 -35 8l-112 -8v59q47 6 92 28.5t74 45.5l145 113h55l-24 -1237q0 -16 2 -48t18 -57q16 -20 33.5 -33.5t38.5 -15.5l76 -4v-60z" />
<glyph unicode="2" horiz-adv-x="819" d="M51 27v100q16 66 37 130.5t31 86.5q33 66 68.5 126t86.5 130q27 37 61 79t66.5 82t58 73.5t38.5 54.5q25 49 41 109.5t16 123.5q0 111 -52 170.5t-161 59.5q-63 0 -109.5 -38t-54.5 -116q10 4 21.5 8t23.5 4q41 0 73 -29.5t32 -78.5q0 -45 -29 -80t-80 -35q-59 0 -92 39 t-33 125q0 61 25.5 112.5t68.5 88.5t99.5 57.5t118.5 20.5q76 0 142 -20.5t115.5 -61.5t78 -105.5t28.5 -150.5q0 -49 -44 -120t-107.5 -147.5t-133 -150.5t-120.5 -127q-41 -45 -71 -74t-48 -61q-31 -72 -62 -148q39 -4 83 -12t85 -16.5t73 -14.5t46 -6q25 0 47.5 3 t42 16.5t35.5 43t29 84.5h55l-21 -362z" />
<glyph unicode="3" horiz-adv-x="800" d="M51 199q0 18 3 40.5t14.5 41t31 31t54.5 12.5q102 0 102 -99q0 -33 -10 -52t-27.5 -29.5t-37 -13.5t-38.5 -3q33 -37 72 -62.5t80 -25.5q29 0 77 28.5t83 82.5q20 29 27 89t7 115q0 143 -34.5 226.5t-118.5 83.5q-16 0 -26.5 -5.5t-26.5 -5.5q-41 0 -41 39q0 20 11 28.5 t28 8.5q16 0 35.5 -5t35.5 -5q41 0 69 19.5t50 60.5q35 66 51.5 142.5t16.5 145.5q0 162 -50.5 227.5t-130.5 65.5q-45 0 -91 -22.5t-64 -91.5q10 2 20 3t19 1q98 0 98 -107q0 -33 -22.5 -68.5t-75.5 -35.5q-66 0 -92.5 47t-26.5 102q0 59 20.5 99.5t65.5 78.5 q41 35 87 49.5t105 14.5q70 0 133.5 -21.5t110.5 -65.5t76 -113.5t29 -168.5q0 -37 -9.5 -77.5t-24 -78.5t-32.5 -72t-39 -54q-23 -23 -45 -40.5t-50 -30.5t-62.5 -22.5t-84.5 -17.5q154 -37 222.5 -127t68.5 -213q0 -20 -2 -49t-11 -61.5t-25.5 -65.5t-47.5 -61 q-53 -49 -119.5 -91.5t-148.5 -42.5q-43 0 -92 12.5t-96 53.5q-43 39 -72 76t-29 80z" />
<glyph unicode="4" horiz-adv-x="761" d="M51 379v106l408 967h119v-913l131 24v-84l-131 -24v-273q0 -23 5 -41t21 -35q25 -31 41.5 -38t36.5 -11v-57l-418 23v59q29 6 50.5 11t34.5 15.5t20.5 29t7.5 52.5v240zM168 489l209 25v260q0 35 1 69t3 62q4 41 9 85t7 91z" />
<glyph unicode="5" horiz-adv-x="784" d="M41 1389h80q16 0 45 -3.5t80 -3.5q123 0 211 11.5t141 31.5q-2 -23 -3 -48t-3 -52q-10 -47 -47 -70.5t-90 -33.5q-31 -6 -85.5 -9.5t-101.5 -3.5q-23 0 -48 -14t-48 -16h-14t-15 2l37 -334q57 43 109.5 60.5t101.5 17.5q82 0 146.5 -35t111.5 -98q27 -35 43.5 -65 t28.5 -64q8 -29 10 -67t2 -77q0 -106 -18.5 -208.5t-73.5 -174.5q-23 -29 -44.5 -57.5t-49.5 -57.5q-33 -25 -61.5 -34t-65.5 -9q-61 0 -119.5 18.5t-102.5 54.5t-72 89.5t-28 122.5q0 27 8.5 53.5t23.5 48t40 35t59 13.5q47 0 82 -34t35 -89q0 -51 -26.5 -82t-102.5 -31 q12 -70 52 -95.5t93 -25.5q55 0 72 27q10 10 22.5 33.5t24.5 50.5q37 86 54.5 163t17.5 167q0 45 -6 77.5t-23 71.5q-16 25 -28.5 48.5t-24.5 47.5q-16 33 -47 58.5t-90 25.5q-43 0 -83 -16t-73 -66q-4 -53 -18.5 -95t-48.5 -42q-39 0 -39 41q0 53 32 103z" />
<glyph unicode="6" horiz-adv-x="759" d="M51 909q0 98 9.5 193.5t48.5 167.5q49 90 122.5 145t176.5 55q37 0 73.5 -11t67.5 -33.5t50 -57.5t19 -82q0 -53 -30 -90q-14 -10 -39 -33.5t-39 -23.5q-16 0 -40 18.5t-42 34.5q-16 16 -23.5 36.5t-7.5 41.5q0 43 24.5 69.5t67.5 49.5q-29 27 -67 26q-102 0 -150 -125 q-14 -35 -17 -81t-3 -89q0 -78 8 -173t33 -187q33 33 75 58.5t97 25.5q76 0 123 -39t76 -100q29 -59 39 -126t10 -133q-2 -109 -12.5 -189.5t-49.5 -137.5q-35 -53 -95 -88t-153 -35q-70 0 -135 37t-110 119q-14 25 -27.5 70.5t-25 104t-21.5 126t-16 135.5 q-10 94 -13.5 165.5t-3.5 155.5zM281 424q0 -66 16 -140.5t37 -142.5q16 -57 88 -57q29 0 49.5 7t30.5 30q16 41 20 106.5t4 120.5q0 86 -8 170t-37 170q-10 31 -27.5 46.5t-45.5 15.5q-16 0 -34 -7.5t-32 -17.5q-10 -10 -25.5 -39.5t-29.5 -54.5q-2 -59 -3 -95t-2 -57.5 t-1 -34v-20.5z" />
<glyph unicode="7" horiz-adv-x="759" d="M51 1104l43 371l615 -76v-78q-29 -63 -57.5 -125.5t-57.5 -128.5q-29 -70 -53.5 -130t-40.5 -130q-35 -139 -44.5 -259t-9.5 -237q0 -10 1.5 -35.5t1.5 -53t1 -53.5t1 -36q0 -27 -4.5 -56.5t-17.5 -54t-37.5 -41t-67.5 -16.5q-66 0 -87.5 45t-21.5 109q0 27 8 63.5 t19.5 77.5t25 85t23.5 83l96 340q39 135 90.5 254t114.5 225q-111 18 -172.5 29.5t-92 15.5t-38.5 5t-15 1q-39 -2 -63.5 -20t-38.5 -35q-23 -31 -37 -60.5t-26 -78.5h-58z" />
<glyph unicode="8" horiz-adv-x="755" d="M51 272q0 25 3 53.5t9.5 59.5t17.5 59.5t28 51.5q31 47 68.5 94t94.5 92q-39 35 -71.5 89t-50.5 97q-25 59 -33 115.5t-8 128.5q0 59 17 126t62 126q51 66 108.5 88.5t121.5 22.5q123 0 200.5 -80t73.5 -221q-2 -61 -7 -107.5t-23.5 -87.5t-55.5 -83t-98 -95 q53 -45 88 -84t63 -94q23 -41 34.5 -107.5t11.5 -171.5q0 -72 -26 -140.5t-73 -121.5q-96 -106 -254 -107q-137 0 -219 83t-82 214zM178 293q0 -51 10.5 -92t32.5 -82q18 -31 57.5 -57.5t96.5 -26.5q47 0 83 18.5t59.5 46t35.5 62.5t12 67q0 68 -11 131.5t-46 114.5 q-23 33 -76 82t-115 90q-29 -18 -56.5 -58t-43.5 -79q-23 -57 -31 -121.5t-8 -95.5zM242 1214q0 -66 8 -118t41 -105q33 -51 73 -84.5t99 -72.5q43 43 64.5 85t31.5 85t12 84.5t7 85.5q0 41 -5.5 83.5t-21.5 77.5t-50 57.5t-89 22.5q-49 0 -82 -17.5t-52.5 -45t-27.5 -63.5 t-8 -75z" />
<glyph unicode="9" horiz-adv-x="784" d="M51 1014v72.5t6 68.5t17.5 72t34.5 82q41 88 103 123.5t132 35.5q39 0 77 -2t66 -10q35 -12 59.5 -32.5t49.5 -57.5q59 -92 93 -211t40 -246q2 -43 3 -74.5t1 -74.5q0 -70 -2 -146.5t-9 -149.5t-21.5 -136.5t-36.5 -106.5q-59 -113 -134 -160t-159 -47q-98 0 -159.5 53.5 t-61.5 129.5q0 66 32.5 97.5t73.5 31.5q61 0 90 -37t29 -72q0 -39 -18.5 -67.5t-69.5 -51.5q14 -14 32.5 -19t34.5 -5q53 0 90 35.5t56 89.5q10 23 12 82t4 137q2 72 0 146.5t-2 137.5q-39 -37 -77 -60.5t-89 -23.5q-84 0 -140 32t-90 86.5t-49.5 126t-17.5 151.5zM260 1178 q0 -92 12.5 -201t46.5 -203q8 -20 23.5 -39.5t52.5 -19.5q16 0 36 6t30 18q16 14 20 40t8 30v102.5t-2 104.5q-4 59 -8 118.5t-12 106.5q-4 25 -11 53.5t-20.5 54t-33 42t-48.5 16.5q-37 0 -65.5 -50t-28.5 -179z" />
<glyph unicode=":" horiz-adv-x="401" d="M51 217q0 55 38 91t79 36q53 0 90 -34t37 -93q0 -37 -35 -76t-92 -39q-18 0 -38.5 9.5t-38 25t-29 37t-11.5 43.5zM78 963q0 57 40 98t89 41q57 0 99 -35.5t42 -103.5q0 -23 -10 -46.5t-29.5 -42t-45 -31t-56.5 -12.5q-23 0 -45.5 11.5t-41 30t-30.5 42t-12 48.5z" />
<glyph unicode=";" horiz-adv-x="401" d="M66 -199q41 88 53 153.5t14 139.5q0 35 -3 68t-7 67l219 -26q-4 -66 -14.5 -135.5t-28.5 -126.5q-18 -53 -42 -105.5t-83 -124.5zM78 965q0 57 39 98t92 41q57 0 99 -36.5t42 -102.5q0 -23 -10 -46.5t-29.5 -43t-45 -32t-56.5 -12.5q-23 0 -46.5 11.5t-42 31t-30.5 43 t-12 48.5z" />
<glyph unicode="&#x3c;" horiz-adv-x="1052" d="M90 649v82l832 393l39 -116l-682 -314l669 -360l-41 -105z" />
<glyph unicode="=" horiz-adv-x="1126" d="M162 416v133l823 29v-175zM162 795v151l823 -12v-152z" />
<glyph unicode="&#x3e;" horiz-adv-x="1052" d="M90 1008l39 116l832 -393v-82l-818 -420l-41 105l670 360z" />
<glyph unicode="?" horiz-adv-x="794" d="M39 1354q0 137 78 198q18 14 48 29.5t65.5 28t73.5 19.5t73 7q76 0 141.5 -33.5t122.5 -86.5q43 -39 65.5 -84.5t22.5 -114.5q0 -57 -19.5 -110.5t-50.5 -98.5q-16 -25 -46.5 -49.5t-65.5 -50t-71 -55t-62 -62.5q-29 -37 -56.5 -74t-50.5 -74q-10 -16 -13 -47.5t-3 -58.5 q0 -59 5 -120.5t15 -121.5q4 -29 11.5 -63.5t11.5 -69.5l-94 -41q-18 109 -30.5 183.5t-20 128t-10.5 90t-3 69.5q0 18 2 40t8 32q31 53 63 108.5t60 108.5q27 47 67 98t83 99q10 12 25.5 29.5t29.5 38t24.5 40t10.5 35.5q0 74 -51 149q-27 39 -69 65t-71 26 q-14 0 -36.5 -4.5t-45 -10.5t-40 -12t-21.5 -8q-16 -10 -33.5 -36t-27.5 -46q51 -2 92 -25.5t41 -89.5q0 -45 -30 -81t-93 -36q-59 0 -92 32t-33 110zM188 -43q0 57 40 98t104 41q63 0 102 -41t39 -98q0 -66 -44 -104.5t-97 -38.5q-68 0 -106 45t-38 98z" />
<glyph unicode="@" horiz-adv-x="1564" d="M80 547q0 160 64.5 301t207.5 260q111 92 246 137t274 45q133 0 249 -27.5t202 -103.5q86 -78 138 -182.5t52 -245.5q0 -61 -3 -126.5t-23 -112.5q-23 -53 -57.5 -103.5t-100.5 -109.5q-23 -18 -56.5 -36t-68.5 -32q-12 -4 -25.5 -5t-27.5 -1q-4 0 -25.5 2t-27.5 2 q-29 0 -58.5 6t-54 23.5t-42 50.5t-19.5 86q-47 -78 -102.5 -121t-123.5 -43q-59 0 -112.5 26.5t-87.5 86.5q-31 53 -43.5 103t-12.5 134q0 33 7.5 75t17.5 75q14 43 30.5 75.5t39.5 55.5q59 57 122.5 82.5t126.5 25.5q25 0 52.5 -6t53.5 -15t45 -19.5t28 -18.5 q49 -47 59 -113l41 137l111 -36q-37 -152 -57.5 -238t-31 -130t-13.5 -55.5t-3 -13.5q0 -47 19.5 -65.5t48.5 -18.5q35 0 68.5 15.5t56.5 52.5q16 29 26 57.5t25 75.5q2 10 4 31.5t4 49.5t2 57.5v56.5q0 35 -5 65.5t-15 65.5t-21.5 65.5t-34.5 50.5q-35 31 -74.5 61 t-84.5 52q-41 20 -93.5 32.5t-113.5 12.5q-55 0 -111.5 -5t-114.5 -28q-158 -66 -265 -150.5t-146 -189.5q-25 -68 -37 -132t-12 -136q0 -129 45 -239.5t139 -192.5q96 -82 216 -117t237 -35q82 0 147.5 11.5t121.5 33t109.5 53t108.5 70.5q12 -10 24.5 -19t24.5 -20 q-115 -86 -247 -133t-289 -47q-137 0 -270.5 34t-233.5 112q-74 57 -122 119.5t-77 128t-40 134t-11 136.5zM567 530q0 -53 11.5 -98t42.5 -88q16 -23 34.5 -32t40.5 -9q23 2 38.5 11.5t35.5 23.5q20 16 43 49t31 49q14 31 22 66q6 20 10.5 36.5t8.5 32.5q6 35 6 58.5v46.5 q0 39 -11.5 77t-33.5 85q-16 18 -35.5 29.5t-44.5 11.5q-10 0 -31.5 -7.5t-44.5 -29.5q-47 -49 -72.5 -109.5t-42.5 -132.5q-8 -31 -8 -70z" />
<glyph unicode="A" horiz-adv-x="985" d="M51 76v55q47 4 71.5 54.5t41.5 111.5l285 1196h118l260 -1288q10 -53 34 -95t73 -47v-55h-395v55q41 2 58 18.5t17 43.5q0 16 -1 33.5t-5 34.5l-67 268l-250 -23l-60 -159q-4 -8 -5 -24.5t-1 -29.5q0 -39 23.5 -64.5t77.5 -29.5v-55h-275zM309 516l217 23l-96 542z" />
<glyph unicode="B" horiz-adv-x="911" d="M45 1384v89q94 -6 185.5 -13.5t183.5 -13.5q78 -4 152.5 -18.5t135.5 -53.5q72 -45 95.5 -113.5t23.5 -140.5q0 -266 -325 -329q102 -16 171.5 -51t112.5 -83.5t61.5 -106.5t18.5 -120q0 -33 -3 -73t-13 -82t-30.5 -80.5t-55.5 -71.5q-53 -49 -129 -70.5t-176 -27.5 q-84 -6 -166 -13.5t-164 -11.5v86q41 6 61 26q16 17 16 51q0 7 -1 15q-16 281 -35 556.5t-41 555.5q-2 23 -4 39.5t-9.5 27.5t-22.5 17t-42 10zM330 760q4 -143 11 -287.5t13 -290.5q2 -51 21.5 -73.5t50.5 -22.5q49 0 79 32t45 80t20 103t5 105q0 68 -7 134t-31 111 q-27 45 -71 77t-136 32zM330 819h18q111 0 156 73t45 200q0 47 -4 105t-15 91q-20 55 -58 75.5t-85 20.5q-25 0 -41 -13t-16 -54v-498z" />
<glyph unicode="C" horiz-adv-x="839" d="M51 670q0 264 135 508q57 100 129 147t154 47q47 0 80 -16.5t61 -38.5h33l-18 129h108l55 -508h-94q-12 53 -32.5 117.5t-46 122t-59.5 95.5t-73 38q-47 0 -73.5 -38t-42.5 -104q-31 -129 -57.5 -263t-26.5 -238q0 -121 5 -237t36 -214q10 -27 24 -51.5t39 -48.5 q49 -51 102 -51q41 0 78 19t66 69q16 29 21 50t5 29v134h66v-115t-4 -68q-4 -18 -14.5 -45.5t-32.5 -52.5q-41 -61 -103.5 -81.5t-126.5 -20.5q-94 0 -174 49t-139 149q-27 45 -43 108.5t-24.5 131t-10.5 132t-2 116.5z" />
<glyph unicode="D" horiz-adv-x="937" d="M47 1315v110l287 -24q51 -4 112.5 -12.5t121 -21.5t110.5 -33.5t84 -47.5q16 -14 31.5 -38.5t30 -53.5t26.5 -60.5t22 -58.5q10 -35 12.5 -71.5t2.5 -79.5q0 -113 -11.5 -212.5t-33.5 -207.5q-8 -37 -17.5 -79t-21.5 -83t-27.5 -77t-36.5 -62q-66 -80 -160 -121t-221 -53 l-237 -25v86q53 8 67.5 32.5t10.5 59.5l-76 1037q-4 35 -16.5 62.5t-59.5 33.5zM352 1212l27 -972q0 -20 5 -46t9 -34q8 -12 23.5 -16.5t32.5 -4.5h43.5t37.5 4q18 6 34 29t22 61q2 8 6 53.5t10 141.5t15.5 253t19.5 392q1 14 1 30.5t-1 34.5q-2 36 -8 58q-8 29 -32 50.5 t-52.5 36.5t-60 23.5t-56.5 8.5q-27 0 -42 -10.5t-22.5 -25.5t-9.5 -32.5t-2 -34.5z" />
<glyph unicode="E" horiz-adv-x="837" d="M51 29v82q74 12 78 92l23 1083q0 35 -12.5 60.5t-65.5 33.5v60l708 22l4 -340h-61q-6 31 -16.5 63t-26.5 52l-55 66q-35 41 -79 59t-91 18q-51 0 -61.5 -20.5t-14.5 -73.5l-23 -493q35 4 65 20t52 45q4 4 19.5 16.5t29.5 22.5q16 12 23.5 28.5t9.5 35.5h61l-22 -429h-61 q-4 37 -15.5 56.5t-40.5 60.5q-29 39 -55.5 56.5t-65.5 21.5v-532q0 -47 20.5 -65.5t49.5 -18.5q45 0 88 19.5t84 72.5q16 18 31.5 37.5t32.5 42.5q20 33 30.5 62.5t20.5 64.5h57l-6 -359z" />
<glyph unicode="F" horiz-adv-x="845" d="M49 1319v55l699 51l47 -415h-52q-10 35 -24 69.5t-43 71.5q-45 61 -107 113q-66 55 -143 55q-16 0 -30.5 -3t-22.5 -13q-18 -16 -19 -80v-459q41 4 66.5 20.5t48.5 44.5q4 6 18.5 16.5t30.5 20.5t23.5 21.5t13.5 40.5h57l-49 -416h-57q-2 27 -8 56.5t-23 52.5 q-43 66 -121 79v-540q0 -51 23.5 -70.5t62.5 -23.5v-58l-354 -22v55q34 18 62 46q26 26 26 67v6q-12 266 -20.5 451.5t-13.5 307t-9 190.5l-6 103.5t-3 44t-3 13.5q-10 25 -28.5 36t-41.5 13z" />
<glyph unicode="G" horiz-adv-x="884" d="M51 684q0 63 4 132t14.5 136.5t29 129t46.5 110.5q66 111 146 155t172 44q35 0 64.5 -16.5t56.5 -37.5l84 -24l28 180l86 -27l-47 -508h-67q-14 57 -34 123t-46.5 121t-60 92t-74.5 37q-31 0 -54.5 -22.5t-39 -60.5t-24.5 -86t-16 -99q-10 -94 -12 -189.5t-2 -181.5 q0 -102 9.5 -239.5t43.5 -266.5q16 -57 44 -75.5t57 -18.5q27 0 49 14.5t37 43.5q30 55 30 128v24q0 11 -2 39t-8 76t-16 132q-4 41 -10.5 56.5t-28.5 15.5q-16 0 -27.5 -2.5t-29.5 -2.5v89l383 26v-88q-18 -4 -41 -9t-33 -18q-14 -26 -14 -59v-8l24 -565h-80l-45 116 q-57 -45 -105 -59t-96 -14q-70 0 -141.5 36.5t-130.5 139.5q-66 117 -94.5 238.5t-28.5 242.5z" />
<glyph unicode="H" horiz-adv-x="985" d="M51 1421v60l381 24v-59q-12 -4 -27.5 -19.5l-29.5 -29.5q-20 -27 -19 -74l27 -520l248 -25l-27 471q-2 18 -3 36t-11 32q-6 4 -19 4q-10 0 -16 -1t-25 -1v61l404 25v-62q-41 -6 -56.5 -32.5t-15.5 -61.5l-24 -1190v-8q0 -71 71 -82v-59l-354 -25v60q16 4 29.5 17t29.5 32 q10 10 13.5 30.5t3.5 34.5v639l-248 25l49 -510q4 -51 19 -70q4 -4 14 -4q4 0 12 2t33 2v-61l-385 -25v62q47 9 65 31q14 18 14 48q0 7 -1 15l-76 1110q-2 29 -6 48.5t-17 29.5q-14 10 -28.5 14t-24.5 6z" />
<glyph unicode="I" horiz-adv-x="542" d="M51 1319v61l381 25v-62q-16 -4 -35.5 -21t-23.5 -28q-14 -20 -15.5 -36.5t-1.5 -32.5l52 -1063q2 -27 5 -43.5t11 -28.5t21.5 -22.5t35.5 -22.5v-59l-381 22v62q51 6 65.5 31.5t12.5 60.5l-51 1063q-2 27 -9 45t-18.5 28.5t-24 14.5t-24.5 6z" />
<glyph unicode="J" horiz-adv-x="753" d="M51 197q0 141 133 141q18 0 39 -4t37 -16.5t27.5 -35t11.5 -59.5q0 -41 -27.5 -75.5t-87.5 -34.5q-14 0 -32 6l-5 -6q23 -35 56 -48.5t67 -13.5q18 0 46 11.5t53.5 27.5t47 34.5t29.5 33.5q27 53 31 90t4 65q0 16 -4 72.5t-10 138.5t-14.5 181.5t-17.5 204t-17 204.5 t-15 184q-2 20 -7 41t-15 31q-4 2 -12 2q-10 0 -28.5 -6t-37.5 -6v84l399 26v-84q-47 -2 -60 -25.5t-11 -57.5q4 -82 9 -181.5t11 -203t12.5 -203t10.5 -180t7 -135t3 -68.5q0 -37 -9 -97.5t-44 -109.5q-23 -29 -48.5 -63.5t-60.5 -51.5q-51 -23 -103 -39t-104 -16 q-53 0 -104 22.5t-109 65.5q-29 23 -40 65t-11 89z" />
<glyph unicode="K" horiz-adv-x="978" d="M51 1413v62l406 26v-61q-8 0 -24.5 -16.5t-33.5 -34.5q-12 -14 -15 -39t-3 -31l-25 -617l301 504q10 16 13.5 29.5t3.5 30.5q0 25 -28 35t-68 12v59l321 -24l-2 -60q-10 2 -24.5 3t-26.5 1h-18.5t-22.5 -2q-16 -10 -31.5 -31.5t-30.5 -44.5l-172 -307l258 -651 q10 -25 19.5 -45.5t17.5 -42.5q4 -2 8.5 -4t8.5 -2q10 0 16 2t29 2v-64l-389 -51v58q10 4 25.5 18t29.5 27q12 18 12 41q0 16 -3 30.5t-7 30.5l-129 496l-111 -201v-422q0 -20 2 -44t9 -36q10 -23 27.5 -29t35.5 -10v-59l-330 26v60q76 6 76 84v8l-51 1190q-2 31 -14.5 60.5 t-59.5 33.5z" />
<glyph unicode="L" horiz-adv-x="808" d="M51 1380v60l404 24l-2 -59q-14 -2 -36 -19.5t-38 -31.5q-12 -10 -16.5 -30.5t-4.5 -41.5l23 -1089q4 -84 70 -84q61 0 92.5 21.5t50.5 49.5q29 43 55.5 106.5t52.5 129.5h56l-23 -389l-639 22v60q48 9 64 33q15 22 14 53v8l-45 1079q-2 33 -16.5 61.5t-61.5 36.5z" />
<glyph unicode="M" horiz-adv-x="1064" d="M51 1319v59l348 25l133 -428l146 530l336 -24v-88q-2 0 -9.5 1t-17.5 1h-13t-24 -2q-8 -14 -13 -41t-5 -39l-25 -1139v-9q1 -41 17 -67q18 -28 65 -32v-60h-383v60q29 4 51.5 14t34.5 26q8 14 14.5 36t6.5 59l24 1233l-182 -758h-84l-231 600l77 -1151q4 -41 9.5 -77 t13.5 -42q14 -16 31.5 -26.5t46.5 -14.5v-59h-293v61q35 6 52.5 24.5t24.5 41t7 43v26.5q0 10 -3 66.5t-9.5 144.5t-13.5 201t-15 235.5t-17.5 247.5t-15.5 238q-2 18 -6 40.5t-29 29.5q-8 4 -18 7t-31 7z" />
<glyph unicode="N" horiz-adv-x="913" d="M49 31v57q35 4 55.5 17.5t32.5 35.5q8 23 11.5 61t3.5 48l22 950q0 23 -4 38t-18 28q-14 2 -30 3t-26 1h-13t-15 -2v59l313 23l324 -842l-23 737q0 10 -3 48t-13 59q-4 10 -21.5 27.5t-64.5 23.5v59l282 -22v-60q-20 -2 -49 -5t-33 -13q-16 -23 -19 -48.5t-3 -43.5 q0 -14 3 -87t9 -181.5t13.5 -243.5t14.5 -274.5t14 -274.5t13 -244h-100l-430 1104l-23 -844q0 -25 2 -50t12.5 -48t32 -39t58.5 -22v-58z" />
<glyph unicode="O" horiz-adv-x="913" d="M51 760q0 86 11.5 165t37.5 160q12 33 26.5 75t33 84t39 80t45.5 67q51 57 104 79.5t109 22.5q72 0 123 -30.5t90 -71.5q25 -29 47 -70t40.5 -85t33 -84t22.5 -65q29 -88 39 -168.5t10 -158.5q0 -102 -18.5 -206.5t-57.5 -223.5q-41 -127 -103 -209t-138 -117 q-29 -12 -55.5 -19.5t-57.5 -7.5q-68 0 -124 30t-105 87q-43 49 -71 107.5t-50 128.5q-8 27 -14.5 80t-9.5 114.5t-5 125t-2 110.5zM279 322q0 -12 2 -48t12 -75q12 -57 39.5 -94t75.5 -37q51 0 75.5 43t36.5 88q20 78 31.5 155.5t17.5 148t7.5 129t1.5 99.5v69t-1.5 86 t-3.5 88t-6 79q-4 43 -13 88t-24.5 82t-40 60.5t-57.5 23.5q-59 0 -92 -71t-45 -183q-8 -74 -8 -157v-165q0 -51 -1 -116.5t-3 -126t-3 -106.5t-1 -60z" />
<glyph unicode="P" horiz-adv-x="890" d="M49 1360v61l354 52q14 2 30 2h30q82 0 151.5 -28t119.5 -78t78 -119.5t28 -153.5q0 -86 -30 -150.5t-91 -118.5q-57 -47 -131 -67.5t-152 -20.5h-55l47 -585q4 -39 21.5 -66t64.5 -31v-57h-326v57q39 8 63.5 26.5t24.5 55.5q0 6 -8 66.5t-20 157t-28.5 217t-34 246.5 t-34 247t-28.5 217q-2 14 -5 30.5t-12 37.5q-6 4 -14 4q-16 0 -19 -1t-24 -1zM354 1300l25 -497h22q39 0 76 14t62 49q41 59 55 118.5t14 119.5q0 102 -63 211q-25 41 -54.5 55t-68.5 14q-42 0 -56 -22q-13 -20 -12 -53v-9z" />
<glyph unicode="Q" horiz-adv-x="931" d="M51 911q0 86 8.5 171t34.5 163q14 41 42 86t79 86q14 10 50 30.5t77 39.5q25 12 61.5 16t79.5 4q70 0 140.5 -30.5t126.5 -122.5q14 -27 28.5 -58.5t25.5 -62.5t19 -57.5t15 -45.5q14 -43 22 -104t12.5 -119.5t6.5 -100.5t2 -44q0 -98 -10.5 -170t-32.5 -141 q-12 -39 -56.5 -96.5t-103.5 -116.5q12 -53 24.5 -98.5t26.5 -92.5q10 -12 21.5 -22.5t27.5 -10.5q23 0 30 23.5t7 44.5v115h47q2 -25 2 -44.5v-29.5q0 -43 -6 -83t-22.5 -73t-45 -52t-73.5 -19h-1q-140 0 -163 247q-41 -22 -90 -22h-4q-125 0 -217 102q-16 18 -34 50 t-32 69t-26.5 73t-20.5 60q-18 53 -32.5 113.5t-25 120t-15.5 111.5t-5 91zM309 774q0 -115 4.5 -218t14.5 -171q57 86 137 86q72 0 123 -76q6 37 9 73t5 71q4 70 10 133t6 141q0 45 2.5 103.5t4.5 116t4 107.5t2 81q0 25 -1 51t-5 47q-16 63 -51 82.5t-66 19.5 q-39 0 -81 -18.5t-58 -83.5q-35 -135 -47.5 -272.5t-12.5 -272.5zM356 293q0 -45 29 -78t74 -33q31 0 50 10.5t29.5 27t13.5 35.5t3 36q0 20 -3 42.5t-14.5 39t-31 28t-49.5 11.5q-100 0 -101 -119z" />
<glyph unicode="R" horiz-adv-x="976" d="M51 29v59q41 4 64.5 29.5t23.5 62.5l23 1104v8q0 36 -16 58q-18 24 -64 28v60l334 -23q78 -4 150.5 -17.5t131.5 -47.5q57 -33 93 -90.5t36 -153.5q0 -74 -28.5 -126t-75.5 -86t-105.5 -54.5t-117.5 -30.5q66 -16 118 -44t87 -79q31 -47 46 -105.5t25 -127.5q2 -14 3 -35 t2 -42.5t2 -42t1 -34.5q2 -37 10.5 -78t28.5 -41q29 0 43 39q10 27 16.5 82t6.5 102q0 10 -1 26.5t-3 27.5l45 -4q4 -20 4 -62q0 -61 -8 -118.5t-28.5 -101.5t-57.5 -70.5t-95 -26.5q-55 0 -96 26.5t-65 73.5q-20 37 -31.5 101.5t-11.5 191.5q0 31 -1 68.5t-6.5 74.5 t-13.5 70t-22 55q-23 35 -70 46.5t-86 11.5l23 -613q2 -37 19 -62.5t67 -29.5v-59h-400zM319 803h21q41 0 84 12t72 47q67 88 67 201q0 59 -17.5 106.5t-37.5 81.5q-37 57 -115 58q-33 0 -53.5 -17.5t-20.5 -60.5v-428z" />
<glyph unicode="S" horiz-adv-x="759" d="M51 4l23 477l78 -4q12 -59 31.5 -128.5t52 -129t83 -99.5t121.5 -40q49 0 77 19.5t40 45t14 50t2 34.5q0 49 -16 92.5t-51 94.5q-27 41 -62.5 80t-72.5 79q-27 29 -57.5 62t-58.5 64.5t-51.5 62.5t-37.5 55q-18 33 -28.5 72t-20.5 86q-6 45 -10.5 77.5t-4.5 88.5 q0 8 2 32.5t10.5 57.5t24 69.5t41.5 71.5q33 41 78 71t127 30q25 0 54.5 -10.5t57 -21.5t49 -21.5t29.5 -10.5q18 0 19 16v43v18.5t4 16.5l113 -2l-23 -379l-74 4q-4 29 -13 57.5t-15 43.5q-16 23 -29.5 41t-30.5 39q-31 49 -66.5 75.5t-88.5 26.5q-72 0 -97.5 -39 t-25.5 -98q0 -55 21.5 -116.5t54.5 -119.5q31 -55 72.5 -111.5t86.5 -103.5q51 -53 98.5 -110.5t75.5 -106.5q35 -59 49.5 -119.5t14.5 -126.5q0 -74 -19.5 -136t-64.5 -118q-37 -45 -84 -69.5t-119 -24.5q-31 0 -65.5 11.5t-66.5 24.5t-58.5 25.5t-40.5 14.5q-23 0 -41 -10 q-6 -20 -13.5 -35.5t-11.5 -40.5z" />
<glyph unicode="T" horiz-adv-x="874" d="M51 1008l37 444l735 -78l-16 -467h-55q-8 49 -19.5 105.5t-29 106.5t-38 87t-47.5 49l-61 15l25 -1106q0 -29 5 -53.5t11 -32.5q14 -25 34.5 -31t39.5 -8v-80l-436 27v77q23 0 36 -1t23 -1t23.5 1t17.5 6q12 18 14 44.5t2 51.5l-24 1132q-29 -10 -58.5 -30.5t-58.5 -69.5 q-18 -35 -31.5 -58.5t-21.5 -42t-13.5 -39t-11.5 -48.5h-82z" />
<glyph unicode="U" horiz-adv-x="976" d="M51 1358v59l398 45v-59q-10 0 -30 -14.5t-36 -30.5q-10 -16 -13 -35.5t-3 -36.5v-948v-32.5t2 -50.5t7 -55.5t13 -47.5q23 -53 65 -71t83 -18q45 0 87 17.5t68 71.5q12 25 18.5 57.5t9.5 61t3 49v22.5l22 788q2 33 -2 62t-20 55q-39 55 -78 64v59l281 -45v-59 q-20 0 -43 -6.5t-35 -12.5q-10 -16 -15.5 -52t-7.5 -65l-22 -776q0 -6 -1 -36.5t-9.5 -72.5t-23.5 -87t-44 -80q-49 -59 -121 -75.5t-139 -16.5q-182 0 -255 86t-73 258v956q0 23 -8 48.5t-39 35.5q-10 -4 -21.5 -7t-17.5 -5z" />
<glyph unicode="V" horiz-adv-x="933" d="M51 1212v62l375 49v-61q-25 0 -47.5 -8.5t-22.5 -41.5v-21t4 -26l129 -714l189 782q4 16 8 31.5t4 19.5q0 41 -25.5 57.5t-66.5 22.5v59l285 -51v-57q-47 -10 -69.5 -50t-33.5 -83l-297 -1176l-121 -22l-202 1116q-4 23 -11.5 44t-19.5 42q-10 10 -29.5 16t-48.5 10z" />
<glyph unicode="W" horiz-adv-x="1124" d="M51 1327v59l287 50v-60q-41 -4 -56.5 -20.5t-15.5 -44.5l99 -848l155 579l-12 74q-6 41 -26.5 59.5t-63.5 26.5v55h323v-55q-69 -6 -69 -58v-8q0 -6 2 -14q-4 -18 -8 -34.5t-9 -32.5l156 -652l51 902q0 10 2 26.5t2 24.5q0 47 -20.5 83t-81.5 40v57l307 -25v-57 q-49 -12 -67.5 -56t-22.5 -91l-102 -1336h-154l-158 891l-221 -817h-72l-149 1165q-4 39 -19.5 72t-56.5 45z" />
<glyph unicode="X" horiz-adv-x="960" d="M51 1323l404 51v-59q-23 -2 -40.5 -8.5t-17.5 -28.5q0 -10 4.5 -23.5l8.5 -25.5l110 -293l133 364q4 14 9.5 28.5t5.5 25.5q0 16 -2 30.5t-7 24.5q-10 16 -28.5 21.5t-48.5 11.5v57l295 -24v-58h-7q-55 0 -87.5 -32.5t-51.5 -81.5l-174 -463l215 -566q8 -20 17.5 -42.5 t19.5 -41t20.5 -29.5t20.5 -11q12 0 22.5 6t36.5 6v-56l-407 -51v58q29 2 47 13t18 36q0 14 -5 29.5t-11 31.5l-127 334l-96 -395q-4 -20 -12.5 -50t-8.5 -32q0 -18 6 -27.5t15 -19.5q10 -6 27.5 -20.5t29.5 -24.5v-56l-309 25v53q66 6 110.5 45t67.5 119l131 481l-201 539 q-12 33 -41.5 50.5t-89.5 21.5z" />
<glyph unicode="Y" horiz-adv-x="985" d="M51 1292v58l418 24l-2 -55q-29 -2 -55.5 -12.5t-26.5 -44.5q0 -16 3 -29.5t7 -28.5l172 -522l172 551q4 12 6.5 26.5t2.5 30.5q0 47 -20.5 75t-70.5 28v59l277 -27v-57q-41 -4 -72 -43t-53 -106l-201 -654v-456q0 -47 22.5 -68t67.5 -25v-57h-411v57q39 2 61 19 q16 10 21.5 30.5t7.5 43.5l26 473l-247 641q-8 18 -18.5 40.5t-18.5 32.5q-10 2 -18.5 2h-16.5q-10 0 -19.5 -1t-13.5 -5z" />
<glyph unicode="Z" horiz-adv-x="839" d="M51 27l447 1284q-12 2 -26.5 2h-18.5q-57 0 -109.5 -16.5t-91.5 -57.5q-45 -47 -82 -109.5t-55 -148.5h-56l37 389l654 127v-47l-519 -1333q10 -4 26.5 -4h21.5q72 0 142.5 25.5t131.5 72.5t106.5 114.5t63.5 151.5h65l-75 -422l-662 -100v72z" />
<glyph unicode="[" horiz-adv-x="630" d="M133 1614l479 20v-104l-303 -21l21 -1640l282 20v-104l-458 -41z" />
<glyph unicode="\" horiz-adv-x="671" d="M20 1575l134 41l471 -1804l-129 -41z" />
<glyph unicode="]" horiz-adv-x="630" d="M16 -152l324 41l-41 1620l-283 21v104l459 -20v-1809l-459 -41v84z" />
<glyph unicode="^" horiz-adv-x="1261" d="M215 1204l365 402l129 4l329 -402l-155 -41l-236 285l-274 -285z" />
<glyph unicode="_" d="M0 -207h1024v-158h-1024v158z" />
<glyph unicode="`" horiz-adv-x="542" d="M94 1538l96 80l230 -248l-144 -156z" />
<glyph unicode="a" horiz-adv-x="995" d="M51 14v56q29 0 48.5 14t31.5 36.5t19.5 49.5t13.5 51l260 1237h119l280 -1216q10 -49 35 -92.5t80 -47.5l6 -57l-409 -18v57q73 6 73 58q0 44 -6 69l-63 215l-250 14l-51 -235q-4 -18 -5.5 -28.5t-1.5 -26.5q0 -49 25 -70t72 -25v-55zM307 518l215 -16l-114 545z" />
<glyph unicode="b" horiz-adv-x="886" d="M51 1430l371 -3q31 0 70.5 -3t79.5 -10t77 -17.5t62 -24.5q66 -55 92 -121.5t26 -150.5q0 -117 -73.5 -205t-251.5 -123q174 -31 253 -109.5t79 -203.5q0 -20 -5.5 -64.5t-20.5 -96.5t-45 -106.5t-79 -93.5q-37 -31 -81 -51t-87 -32.5t-83 -16.5t-66 -4q-35 0 -66 1 t-61.5 3t-66.5 6t-81 10v84q76 0 76 54v6l-41 1112q-2 43 -12.5 65.5t-63.5 32.5zM326 162v-6q0 -26 14 -56q16 -34 57 -34q39 0 67 26.5t44 67.5q14 33 24.5 83t17.5 102t10 97t3 68q0 55 -4 77.5t-16 45.5q-33 61 -87.5 83.5t-111.5 22.5zM344 799h21q63 0 101 26.5 t57.5 67.5t25.5 89t6 89q0 51 -2 106.5t-14 90.5q-16 51 -49 73.5t-76 22.5q-35 0 -47.5 -21.5t-12.5 -46.5z" />
<glyph unicode="c" horiz-adv-x="800" d="M51 670q0 119 18.5 242.5t77.5 240.5q33 68 71 110t79 66.5t83 33.5t85 9q53 0 90 -18.5t59 -36.5l31 -8l8 137l99 -14l-47 -494h-95q-2 176 -30.5 274.5t-92.5 98.5q-12 0 -30.5 -6.5t-41 -24.5t-46 -51t-41.5 -84q-14 -61 -22.5 -139t-13.5 -150t-7 -124t-2 -64 q0 -45 2 -105.5t10 -124t21.5 -122t35.5 -99.5q16 -47 53 -90t91 -59q35 0 71.5 17t69.5 71q12 18 21.5 49t9.5 51q0 14 -1 36.5t-12 61.5l68 15q10 -53 11 -74t1 -33t-8 -64.5t-49 -109.5q-39 -57 -93.5 -80.5t-113.5 -23.5q-90 0 -169 45t-144 153q-29 45 -49.5 114 t-33 139.5t-18.5 134t-6 100.5z" />
<glyph unicode="d" horiz-adv-x="917" d="M47 1264v90q78 6 143.5 10t145.5 4q10 0 57 -4t107.5 -15.5t122 -33t100.5 -55.5q66 -55 98 -134q12 -27 20.5 -51t13.5 -53t8 -62.5t3 -76.5q0 -4 -1 -25.5t-3 -52.5t-5 -65.5t-5 -63.5q-4 -66 -13.5 -141.5t-22.5 -148.5t-33.5 -134.5t-49.5 -97.5q-43 -55 -103.5 -90 t-125 -53.5t-126 -26t-106.5 -7.5q-23 0 -39 1.5t-32.5 2.5t-36 2t-49.5 1v84q80 0 80 61v6l-68 1051q-2 29 -15.5 48t-64.5 30zM305 1161l23 -919q0 -4 2 -31t8 -39q10 -23 26.5 -27t32.5 -4q27 0 55 -1h11q21 0 35 3q18 6 30.5 26.5t20.5 47.5t12 53.5t4 44.5l25 762 q1 14 1 26q0 25 -3 46q-4 31 -8 47q-6 18 -19.5 30.5t-27 19.5t-24.5 10.5t-13 3.5q-59 6 -115 6h-5q-40 0 -56 -28q-16 -27 -15 -68v-9z" />
<glyph unicode="e" horiz-adv-x="815" d="M51 1395v61l713 -22l-19 -322h-61q-4 23 -7 49.5t-13 52.5q-16 23 -27.5 41.5t-26.5 34.5q-29 33 -68.5 54.5t-92.5 21.5q-49 0 -60.5 -19.5t-13.5 -72.5l-17 -481q43 6 73 39.5t58 74.5q6 12 14.5 33t10.5 37h59l15 -430h-62q0 39 -20 67q-6 8 -16.5 20.5t-21.5 25 t-20.5 22.5t-15.5 14q-16 10 -36.5 18.5t-41.5 12.5l-20 -526v-6q0 -35 22 -51q24 -16 66 -17q47 0 81 17.5t70 64.5q18 25 31.5 42t32.5 56q10 20 13 41t3 49h70l25 -340l-668 -22v84q40 5 60 25q18 18 18 57v8l-27 1094q0 8 -2 23t-9 29.5t-23.5 26t-45.5 13.5z" />
<glyph unicode="f" horiz-adv-x="815" d="M51 18v60q57 8 73.5 31.5t16.5 50.5l-10 1100q-4 23 -5 31.5t-3 17.5q-8 27 -27.5 36t-40.5 13v57l709 -35l-31 -368h-55q-4 25 -12.5 58.5t-14.5 49.5q-14 45 -28.5 73t-34.5 56q-33 35 -68 55.5t-65 20.5q-23 -4 -46.5 -7t-33.5 -18q-10 -14 -12.5 -41.5t-2.5 -35.5 l-18 -459q35 2 77 16.5t70 50.5q2 4 21.5 27t36.5 70h59l-24 -416h-58q-4 29 -9 55.5t-21 55.5q-29 39 -67 56t-85 21l-23 -540v-7q0 -42 23 -67q25 -27 64 -43v-55z" />
<glyph unicode="g" horiz-adv-x="944" d="M51 780q0 113 13.5 221.5t62.5 190.5q53 86 129 143.5t190 57.5q35 0 69 -11.5t63 -27.5l73 -41l-18 155l100 11l29 -518h-68q-14 86 -34.5 154.5t-50 116.5t-71.5 73.5t-100 25.5q-43 0 -70.5 -41t-44 -101.5t-22.5 -129t-6 -121.5v-60.5t1 -59t2 -47t1 -21.5 q0 -66 3 -140.5t10 -149.5t19.5 -145.5t28.5 -126.5q12 -43 36 -69.5t61 -26.5q63 0 90 60q23 47 30 87t11 85l12 225q-4 23 -8 55.5t-12 38.5q-8 2 -21.5 3t-23.5 1h-11.5t-17.5 -2l4 84l383 -20l-6 -78q-18 -4 -35.5 -6t-36.5 -4q-6 -8 -10 -29t-8 -85.5t-9.5 -187 t-13.5 -333.5h-80l-2 182q-59 -76 -114.5 -108.5t-128.5 -32.5q-178 0 -273 176q-35 66 -59.5 140.5t-39 150t-20.5 149.5t-6 137z" />
<glyph unicode="h" horiz-adv-x="985" d="M51 1321v61l381 -22v-62q-47 -4 -61.5 -31.5t-14.5 -68.5l4 -528l256 45l-8 602q0 16 -3 29.5t-13 23.5q-27 16 -60 16v62l402 27v-62q-47 -8 -58.5 -36.5t-13.5 -59.5l-51 -1155v-7q-1 -31 15 -55q18 -26 59 -30v-66l-342 27v61q47 4 62.5 25.5t15.5 52.5l-5 465 l-256 -45v-492q0 -16 5.5 -38.5t11.5 -28.5q12 -10 32.5 -22.5t32.5 -14.5v-60l-346 -16v62q36 18 58 42q21 22 20 68v8l-47 1100q0 18 -4 38.5t-12.5 39t-22.5 31t-37 14.5z" />
<glyph unicode="i" horiz-adv-x="546" d="M51 16v72q57 8 75.5 28.5t29.5 45.5l22 1057v12q0 51 -14 77q-16 30 -64 46v59l396 -33v-61q-35 -8 -57.5 -25.5t-28.5 -54.5l-60 -1044v-9q0 -10 2 -21t5 -21.5t8 -16.5q12 -10 33.5 -28.5t37.5 -22.5v-60h-385z" />
<glyph unicode="j" horiz-adv-x="845" d="M51 240q0 86 42 118q40 31 89 31h6q72 -4 99.5 -38t27.5 -83q0 -53 -33.5 -82.5t-82.5 -29.5q-14 0 -29 8q0 -23 36 -48.5t132 -25.5q45 0 76.5 12.5t54.5 44.5q25 33 35 85q8 44 8 90v18l-23 1001q-4 16 -10 26.5t-41 25.5q-12 4 -25.5 7t-23.5 3v84l406 -29v-84 q-37 -2 -56.5 -19.5t-21.5 -66.5l-23 -903q-2 -57 -5 -97t-8 -70t-14.5 -54.5t-23.5 -50.5q-23 -35 -45.5 -65t-65.5 -48q-35 -14 -71.5 -21.5t-77.5 -7.5q-43 0 -118 21.5t-148 93.5q-23 20 -35 47t-19.5 50.5t-9.5 40.5z" />
<glyph unicode="k" horiz-adv-x="974" d="M51 1438v61l381 -24v-62q-16 -10 -29.5 -17t-25.5 -18q-10 -8 -15.5 -37.5t-5.5 -48.5l-22 -590l299 504q10 16 13 29.5t3 28.5q0 16 -13 24t-32 8q-12 0 -23.5 -2t-23.5 -4l-4 60l321 22l-6 -63q-8 0 -20 -1t-27 -3q-33 -4 -55.5 -27t-46.5 -64l-166 -278l264 -803 q10 -20 20.5 -40.5t18.5 -39.5q33 -14 45 -14h9.5t13.5 2l-6 -59l-390 -27v55q66 16 66 64q0 10 -3 26.5t-7 32.5l-129 641l-125 -201l-2 -380q0 -10 1 -37t11 -45q6 -16 23.5 -24.5t39.5 -12.5v-60l-331 -24v57q45 8 59 31.5t14 64.5l-18 1200q0 8 -2 23.5t-10.5 30 t-23.5 27t-40 14.5z" />
<glyph unicode="l" horiz-adv-x="761" d="M51 6v60q47 10 62.5 32.5t15.5 61.5l18 1122q0 25 -14 57.5t-65 40.5v60l407 -31l-4 -61q-29 0 -46 -12.5t-28.5 -30t-15.5 -39t-4 -39.5l-60 -1055q2 -37 23.5 -52.5t48.5 -15.5q47 0 90 23t72 68q27 55 44 110t26 113l57 12l33 -389z" />
<glyph unicode="m" horiz-adv-x="1064" d="M51 1389v61l348 25l154 -510l125 489l336 -24v-89q-4 -2 -8 -2q-12 0 -24.5 5.5t-18.5 5.5t-8.5 -3.5t-4.5 -5.5q-4 -8 -8 -20t-6 -24.5t-3 -21.5t-1 -11l-25 -1141q-2 -100 82 -107v-59l-383 29v59q61 8 86 31q4 14 12.5 32.5t8.5 41.5l24 1232l-168 -716h-84l-245 677 l59 -1107q2 -27 6 -63t17 -56q10 -16 31.5 -27.5t47.5 -15.5v-58h-309v60q37 6 57.5 22.5t29.5 38t10 43t1 37.5l-55 1090q-4 18 -5 31.5t-9 23.5t-23.5 16t-46.5 11z" />
<glyph unicode="n" horiz-adv-x="958" d="M51 1337v56l342 -21l320 -846l14 744q0 27 -3 53.5t-13 50.5q-18 12 -39 17.5t-47 9.5v57l282 -14v-58q-16 -2 -43.5 -5t-38.5 -13q-16 -16 -19 -45t-3 -53l-8 -1145h-103l-413 967l49 -895q14 -84 42.5 -109t61.5 -25v-55l-326 -12v51q35 4 54.5 22.5t29.5 43.5 q10 23 14.5 45t2.5 63l-49 1002q-2 29 -5 60.5t-18 47.5q-23 8 -51 8h-16.5t-16.5 -2z" />
<glyph unicode="o" horiz-adv-x="899" d="M51 666.5v117.5q0 20 4 67.5t12.5 100t18.5 102.5t20 79q29 80 62 146.5t73 114.5t92 74.5t120 26.5q63 0 119.5 -27.5t111.5 -78.5q49 -47 79 -99.5t50 -136.5q27 -104 31 -192.5t4 -184.5q0 -66 -12.5 -183.5t-59.5 -260.5q-51 -156 -144 -244t-204 -88 q-63 0 -119.5 30.5t-102.5 80t-80 113t-52 130.5q-8 29 -13.5 79t-7.5 110.5t-2 123zM305 557q0 -76 5 -140.5t20 -133.5q6 -29 16 -57.5t24.5 -51t33 -38t40.5 -15.5q88 0 127 162q35 135 46.5 264t13.5 266q0 100 3 178q1 18 1 36q0 59 -8 116q-8 51 -19.5 99t-27 83 t-37 56.5t-51.5 21.5q-53 0 -94.5 -64.5t-59.5 -195.5q-10 -70 -16.5 -153t-9.5 -162.5t-5 -151.5t-2 -119z" />
<glyph unicode="p" horiz-adv-x="882" d="M51 1343v60q51 2 116.5 4t125 4t105.5 3t61 1q109 0 180.5 -17.5t114.5 -54t60 -92t17 -131.5q0 -63 -18 -123.5t-45 -109.5t-55.5 -82t-48.5 -43q-59 -41 -124 -50.5t-137 -9.5h-59l-18 -589q4 -47 30.5 -67.5t65.5 -25.5v-59l-320 12v58q59 4 75 25.5t13 56.5l-63 1149 q-2 16 -7 39.5t-9 27.5q-10 4 -22.5 7t-37.5 7zM326 750h32q59 0 95 16t59 45q41 57 58.5 145t17.5 168q0 35 -7.5 71t-29.5 75q-20 31 -53 46t-95 15q-47 0 -62 -25.5t-15 -60.5v-495z" />
<glyph unicode="q" horiz-adv-x="927" d="M51 819q0 109 17.5 202t52.5 204q29 51 55.5 94t61.5 88q14 12 31.5 28.5t45 30t67.5 23.5t97 10q78 0 145.5 -32.5t120.5 -118.5q51 -88 84 -195q29 -102 38.5 -195t9.5 -204q0 -39 -1.5 -74t-5.5 -71t-13 -76.5t-23 -90.5q-23 -68 -60 -117t-100 -96l51 -196 q20 -31 47 -31q20 0 27.5 16.5t11.5 51.5t4 64.5v47.5h55q2 -23 2 -39v-32q0 -39 -8 -80t-26.5 -74t-49 -53.5t-75.5 -20.5q-68 0 -111 64.5t-53 187.5q-23 -10 -44.5 -16t-49.5 -6q-201 0 -310 170q-29 76 -47 136t-28.5 120.5t-14.5 127t-4 152.5zM266 758q0 -8 5 -57.5 t13.5 -111t18.5 -121.5t21 -91q23 35 56.5 60.5t80.5 25.5q45 0 72.5 -21.5t50.5 -54.5q4 25 8 70t7 91t5 85t2 51q0 203 -15.5 351.5t-62.5 275.5q-25 68 -53.5 86t-38.5 18q-43 -6 -81 -35.5t-54 -95.5q-14 -66 -21.5 -143.5t-10.5 -151.5t-3 -136v-95zM352 285 q0 -35 22.5 -72t80.5 -37q55 0 75.5 28t20.5 79q0 55 -26.5 89t-75.5 34q-39 0 -68 -37t-29 -84z" />
<glyph unicode="r" horiz-adv-x="942" d="M51 1309v59q63 12 113.5 22.5t96.5 17.5t92 12t102 5q49 0 83.5 -2t62.5 -8t50.5 -15t44.5 -22q59 -35 80 -85t21 -103q0 -23 -4.5 -54.5t-8.5 -52.5q-6 -37 -21 -79.5t-47 -82.5t-84 -70t-134 -42q80 -18 126 -48t78 -75q23 -35 31 -77t8 -81t-3 -67.5t-6 -56t-5 -57.5 t-2 -66q0 -141 57 -142q14 0 25.5 12.5t15.5 26.5q10 29 15.5 67t5.5 66v26.5t-2 29.5l45 -2q2 -8 3 -27t1 -35q0 -145 -50 -206.5t-139 -61.5q-59 0 -96 25.5t-65 72.5q-10 23 -19.5 43.5t-14.5 42t-8 47t-1 60.5l10 200q0 4 6 34t6 69q0 29 -4 58.5t-20 60.5 q-23 33 -64 43t-94 10l-21 -531v-6q1 -30 19 -56q20 -28 67 -32v-59h-327v59q29 4 47 14.5t27.5 24.5t11.5 28.5t2 26.5l-37 996q0 33 -76 43zM342 831l70 -6q35 0 50.5 11.5t31.5 25.5q25 23 41 59.5t26 77.5t15.5 82t5.5 70q0 41 -8.5 69.5t-24.5 55.5q-18 35 -42 50 t-65 15t-57 -21.5t-18 -57.5z" />
<glyph unicode="s" horiz-adv-x="804" d="M51 489l76 -6q29 -109 63.5 -184.5t75.5 -122.5t85 -67.5t91 -20.5q53 0 99.5 28.5t66.5 112.5q4 20 4 43q0 31 -12 71t-59 79q-16 14 -63.5 63.5t-141.5 141.5q-16 14 -36.5 36.5t-44.5 49t-45.5 56.5t-37.5 58q-20 37 -37.5 76t-28.5 74q-10 47 -15 87t-5 87 q0 8 2 33.5t10 58.5t24.5 70t43.5 69q43 53 99.5 77t133.5 24q20 0 48 -10.5t55.5 -22.5t50 -22.5t29.5 -10.5q4 14 4 41v49l110 13v-435l-71 5q-12 68 -33 121t-62 106q-20 35 -58 67.5t-85 32.5q-31 0 -59.5 -4t-49 -17.5t-33 -38t-12.5 -65.5q0 -49 15.5 -96t37 -86 t43 -69.5t31.5 -47.5q37 -61 82 -106t90.5 -87t87.5 -86t72 -102q29 -47 45.5 -107t16.5 -136q0 -90 -23.5 -152.5t-58.5 -101.5q-16 -14 -38 -30.5t-50.5 -31t-65.5 -24t-86 -9.5q-29 0 -62.5 12.5t-65.5 26t-59.5 25.5t-39.5 12q-8 0 -17.5 -2t-19.5 -10q2 -6 2 -15.5 v-15.5q0 -29 -4 -45l-88 4z" />
<glyph unicode="t" horiz-adv-x="864" d="M51 1374l762 72l-25 -445h-55q-8 45 -19.5 92.5t-26.5 87.5t-35.5 69.5t-45.5 39.5l-67 8l-2 -1108q0 -16 2 -42.5t12 -45.5q12 -23 31.5 -29.5t42.5 -9.5v-77l-402 -21v78q12 2 25.5 2h25.5q29 10 44.5 37t19.5 63l-39 1119q-35 -4 -55.5 -12.5t-38.5 -22.5 q-29 -41 -45.5 -110.5t-20.5 -139.5l-67 -14z" />
<glyph unicode="u" horiz-adv-x="923" d="M51 1270v61l402 -16v-60q-47 -25 -66.5 -53t-19.5 -63l12 -817q0 -51 4 -102.5t18 -84.5q18 -43 54.5 -65.5t95.5 -22.5q47 0 89 18.5t67 69.5q20 41 27 91q4 32 4 63q0 18 -1 35l-45 872q-2 25 -4 57.5t-18 61.5q-18 16 -37 24.5t-43 18.5v61l282 -6v-59 q-18 -10 -43.5 -19.5t-35.5 -19.5q-12 -20 -15.5 -51t-7.5 -68l45 -860q1 -15 0 -29q-1 -73 -17 -133q-20 -72 -59 -117q-47 -53 -111.5 -71.5t-148.5 -18.5q-96 0 -158.5 22.5t-100.5 66.5t-54 108.5t-16 146.5l-13 889q0 41 -43 64z" />
<glyph unicode="v" horiz-adv-x="935" d="M51 1257v60l375 51v-59q-31 0 -50.5 -11.5t-19.5 -40.5q0 -10 1 -23t3 -22l205 -833l109 678q2 10 3 27.5t1 23.5q0 70 -90 78v61l297 25v-60q-43 -8 -65.5 -42.5t-33.5 -88.5l-217 -1149h-131l-278 1215q-6 25 -13.5 47.5t-17.5 36.5q-14 12 -34.5 17t-43.5 9z" />
<glyph unicode="w" horiz-adv-x="1067" d="M51 1391v57l297 -53v-60q-72 -6 -72 -59v-6l70 -856l113 534l8 99q4 29 -4 45t-35 32q-10 6 -24.5 8.5t-30.5 2.5v59l313 -2v-59q-31 -4 -53.5 -16.5t-28.5 -33.5q-6 -25 -8 -47t-6 -43l170 -631l8 889q0 18 -3 39t-13.5 38.5t-31 30.5t-54.5 15v58l350 45v-58 q-25 -6 -46.5 -15t-29.5 -26q-12 -18 -23.5 -44.5t-13.5 -61.5l-35 -1313l-153 18l-199 844l-194 -864l-78 10l-119 1247q-2 23 -4 50.5t-9.5 53t-21.5 46t-39 27.5z" />
<glyph unicode="x" horiz-adv-x="1015" d="M51 76v55q41 4 68.5 18.5t46 37t33 51t28.5 59.5l191 412l-205 544q-10 29 -36.5 48.5t-90.5 23.5l-6 57l403 52v-58q-57 -4 -57 -39q0 -12 4 -24.5t8 -22.5l119 -368l125 272q4 10 9 26.5t5 26.5q-2 35 -6 49.5t-22 22.5q-10 4 -25.5 9t-30.5 7v58l324 43v-58 q-47 0 -83 -24.5t-65 -87.5l-192 -439l233 -612q14 -35 28.5 -63.5t39.5 -34.5q16 -2 33.5 -8.5t34.5 -6.5v-53l-408 -49v53q29 2 48.5 14.5t19.5 34.5q0 14 -5.5 29.5t-11.5 32.5l-153 444l-154 -325q-4 -20 -10 -42t-10 -38q0 -31 20 -49q16 -14 32.5 -27.5t26.5 -22.5 v-53z" />
<glyph unicode="y" horiz-adv-x="946" d="M51 1362v57l393 -14l-4 -59q-31 0 -56.5 -12.5t-25.5 -41.5q0 -16 3.5 -29.5t7.5 -29.5l172 -641l147 473q6 18 9 34.5t3 20.5q0 51 -16 77t-70 28v57l281 23v-56q-29 -4 -48.5 -23.5t-33.5 -48t-25.5 -62.5t-21.5 -64l-184 -576l-15 -405v-7q0 -40 21 -59q24 -22 69 -27 v-57l-358 -22v57q31 2 49.5 15.5t27.5 30.5t11 35.5t2 33.5l-12 422l-221 800q-4 18 -13.5 37t-25.5 35q-4 0 -12.5 1t-16.5 1h-17.5t-19.5 -4z" />
<glyph unicode="z" horiz-adv-x="913" d="M51 39v74l611 1167q-25 2 -53.5 5t-58.5 5t-54.5 3t-38.5 1q-59 0 -100.5 -4t-73.5 -20q-39 -59 -50.5 -118.5t-15.5 -119.5h-55l-10 387l710 -16v-47l-631 -1153q31 -2 72 -6t81 -8.5t76 -7.5t58 -3q45 0 71.5 7.5t45.5 29.5q23 33 52.5 90t51.5 105h66l2 -430z" />
<glyph unicode="{" horiz-adv-x="849" d="M76 608q96 8 150.5 34t82 66t33.5 91t6 108v385q0 82 20.5 160t80.5 123q53 41 133 51t166 12l-21 -77h-54.5t-43.5 -5q-35 -6 -58 -28q-35 -39 -51 -93.5t-16 -117.5v-322q0 -43 -1 -90t-5 -90t-10.5 -76.5t-18.5 -50.5q-59 -90 -168 -115q59 -10 102 -43.5t66 -70.5 q12 -18 18.5 -53t10.5 -78t5 -89t1 -87v-138q0 -53 15.5 -109.5t51.5 -97.5q27 -29 75 -41t102 -12l40 -78q-72 0 -122 8.5t-70 12.5q-109 27 -164 74q-51 45 -67.5 120.5t-16.5 149.5v201q0 49 -5 100t-29.5 93t-76 71t-141.5 35z" />
<glyph unicode="|" d="M424 -481v2107h178v-2107h-178z" />
<glyph unicode="}" horiz-adv-x="849" d="M63 -324l41 78q53 2 100.5 12.5t76.5 40.5q41 47 54 103.5t13 103.5v138q0 20 1 63t4 91t10.5 90t19.5 63q23 35 62.5 67.5t105.5 46.5q-104 23 -168 115q-12 16 -18.5 51t-10.5 79t-5 91t-1 86v322q0 53 -13 109.5t-54 101.5q-25 27 -64 30t-92 3l-21 77q33 0 73 -2 t81 -8t79 -19.5t66 -33.5q59 -47 80 -123t21 -160v-385q0 -18 1 -45.5t6 -58.5t16.5 -60.5t29.5 -52.5q29 -33 81 -53.5t138 -28.5l-20 -67q-119 -10 -176 -58q-27 -23 -42.5 -55.5t-22.5 -67t-9 -66.5t-2 -52v-201q0 -72 -16.5 -147.5t-67.5 -122.5q-31 -27 -72 -44.5 t-92 -29.5q-90 -20 -193 -21z" />
<glyph unicode="~" horiz-adv-x="1355" d="M70 510q25 182 113.5 287.5t238.5 105.5q41 0 83 -7t81 -24q66 -29 120 -75.5t103 -92t96 -78t96 -32.5q23 0 64 19.5t63 45.5q16 18 32 52t28 69t21.5 64.5t11.5 36.5l57 -4q-6 -74 -19.5 -132.5t-35.5 -111.5q-43 -102 -127 -158.5t-183 -56.5q-88 0 -184 47t-184 113 q-51 39 -88 64.5t-64 37.5q-33 16 -52 18t-34 2q-35 0 -62.5 -12t-51.5 -43q-16 -20 -32 -57t-32 -80z" />
<glyph unicode="&#xad;" d="M111 719v143l802 -8v-143z" />
<glyph unicode="&#x2000;" horiz-adv-x="826" />
<glyph unicode="&#x2001;" horiz-adv-x="1653" />
<glyph unicode="&#x2002;" horiz-adv-x="826" />
<glyph unicode="&#x2003;" horiz-adv-x="1653" />
<glyph unicode="&#x2004;" horiz-adv-x="551" />
<glyph unicode="&#x2005;" horiz-adv-x="413" />
<glyph unicode="&#x2006;" horiz-adv-x="275" />
<glyph unicode="&#x2007;" horiz-adv-x="275" />
<glyph unicode="&#x2008;" horiz-adv-x="206" />
<glyph unicode="&#x2009;" horiz-adv-x="330" />
<glyph unicode="&#x200a;" horiz-adv-x="91" />
<glyph unicode="&#x2010;" d="M111 719v143l802 -8v-143z" />
<glyph unicode="&#x2011;" d="M111 719v143l802 -8v-143z" />
<glyph unicode="&#x2012;" d="M111 719v143l802 -8v-143z" />
<glyph unicode="&#x2013;" horiz-adv-x="1246" d="M111 719v143l1024 -8v-143z" />
<glyph unicode="&#x2014;" horiz-adv-x="2270" d="M111 719v143l2048 -8v-143z" />
<glyph unicode="&#x202f;" horiz-adv-x="330" />
<glyph unicode="&#x205f;" horiz-adv-x="413" />
<glyph unicode="&#x25fc;" horiz-adv-x="1433" d="M0 0v1434h1434v-1434h-1434z" />
</font>
</defs>
</svg>
